<?xml version="1.0" standalone="no"?>
<!DOCTYPE svg PUBLIC "-//W3C//DTD SVG 1.1//EN" "http://www.w3.org/Graphics/SVG/1.1/DTD/svg11.dtd" >
<svg xmlns="http://www.w3.org/2000/svg">
<metadata>Generated by IcoMoon</metadata>
<defs>
<font id="icomoon" horiz-adv-x="1024">
<font-face units-per-em="1024" ascent="960" descent="-64" />
<missing-glyph horiz-adv-x="1024" />
<glyph unicode="&#x20;" horiz-adv-x="512" d="" />
<glyph unicode="&#xe900;" horiz-adv-x="1425" d="M530.254 954.034c86.855-0.604 157.032-71.153 157.032-158.093 0-0.361-0.001-0.722-0.004-1.083v0.055c0-7.391-0.89-14.692-1.914-21.994-0.312-1.959-0.178-3.918-0.534-5.877l-5.743-65.002 54.005-0.134-5.654 65.135c-0.712 4.096-0.668 8.237-1.069 12.377-0.534 5.165-1.38 10.24-1.38 15.449-0.001 0.256-0.002 0.558-0.002 0.861 0 84.732 66.788 153.864 150.592 157.624l0.339 0.012c2.048 0.134 3.962 0.668 6.010 0.668 2.226 0 4.23-0.534 6.322-0.623 31.165-1.336 60.861-11.843 85.749-30.186 6.545-4.808 13.045-9.795 18.833-15.627 5.832-5.966 11.219-12.377 16.117-19.189l309.871-367.349c53.865-54.908 88.527-128.823 93.014-210.775l0.037-0.837c0.356-6.233 0.89-12.466 0.89-18.788-0.004-97.323-43.283-184.537-111.644-243.449l-0.418-0.352c-1.781-1.558-3.339-3.206-5.165-4.719-1.514-1.247-3.161-2.271-4.719-3.517-54.18-43.524-123.787-69.855-199.545-69.855-0.126 0-0.252 0-0.377 0h0.019c-0.016 0-0.034 0-0.053 0-64.956 0-125.391 19.355-175.852 52.612l1.202-0.744c-88.982 58.107-146.966 157.219-146.966 269.875 0 0.053 0 0.105 0 0.158v-0.008l-20.257 230.4h-85.971l-19.99-230.4c0.001-0.254 0.001-0.554 0.001-0.855 0-25.602-2.97-50.511-8.583-74.4l0.435 2.194c-23.628-102.512-93.363-185.022-185.672-225.754l-2.076-0.817-0.801-0.267c-9.35-4.007-18.966-7.658-28.806-10.774-7.48-2.36-15.137-4.23-22.884-6.055-2.671-0.668-5.343-1.558-8.014-2.137-6.099-1.291-12.377-2.003-18.61-2.983-4.541-0.668-8.949-1.647-13.579-2.137-4.541-0.49-9.261-0.49-13.891-0.801-6.367-0.445-12.689-1.069-19.144-1.113-153.346 1.137-281.257 108.662-313.646 252.366l-0.41 2.165c-0.445 2.048-1.113 4.007-1.514 6.055-0.267 1.247-0.312 2.538-0.579 3.784-3.57 18.092-5.613 38.894-5.613 60.173 0 0.477 0.001 0.953 0.003 1.43v-0.073c0 0.124 0 0.272 0 0.419 0 59.031 15.641 114.409 43.006 162.216l-0.844-1.6c14.024 25.066 31.165 48.529 51.645 69.365l309.782 367.393c2.315 3.206 5.12 6.010 7.658 9.082 2.849 3.384 5.432 6.945 8.548 10.106 4.185 4.23 8.993 7.569 13.579 11.264 26.268 21.638 60.183 34.852 97.175 35.127h0.060zM1084.594 521.060c-125.786-1.807-227.061-104.199-227.061-230.244 0-127.173 103.094-230.266 230.266-230.266 1.127 0 2.252 0.008 3.375 0.024l-0.17-0.002c125.618 0.88 227.112 102.917 227.112 228.658 0 1.693-0.018 3.381-0.055 5.065l0.004-0.251c-1.844 125.758-104.221 226.995-230.243 226.995-1.151 0-2.3-0.008-3.447-0.025l0.173 0.002zM321.269 521.016c-125.599-0.906-227.066-102.932-227.066-228.658 0-0.55 0.002-1.099 0.006-1.648v0.085c-0.003-0.464-0.005-1.014-0.005-1.564 0-125.726 101.468-227.752 226.98-228.658h0.086c125.609 0.956 227.066 103.003 227.066 228.746 0 0.519-0.002 1.037-0.005 1.555v-0.080c0.003 0.438 0.005 0.957 0.005 1.475 0 125.743-101.457 227.79-226.975 228.746l-0.091 0.001z" />
<glyph unicode="&#xe901;" horiz-adv-x="1425" d="M284.405 136.927c-40.648 0-80.139 13.579-112.284 38.556 33.94-45.12 87.329-74.031 147.478-74.173h0.023c102.723 0.53 185.792 83.925 185.792 186.722 0 0.33-0.001 0.659-0.003 0.988v-0.051c0 0.089 0 0.193 0 0.298 0 60.424-28.51 114.188-72.812 148.576l-0.427 0.319c24.71-32.723 38.066-72.659 37.977-113.664 0.001-0.265 0.002-0.579 0.002-0.893 0-102.772-83.048-186.148-185.696-186.677h-0.051zM1093.365 101.309c102.723 0.53 185.792 83.925 185.792 186.722 0 0.33-0.001 0.659-0.003 0.988v-0.051c0 0.089 0 0.193 0 0.298 0 60.424-28.51 114.188-72.812 148.576l-0.427 0.319c24.71-32.723 38.066-72.659 37.977-113.664 0.001-0.265 0.002-0.579 0.002-0.893 0-102.772-83.048-186.148-185.696-186.677h-0.051c-40.648 0-80.139 13.579-112.284 38.556 33.94-45.12 87.329-74.031 147.478-74.173h0.023z" />
<glyph unicode="&#xe902;" d="M1024 960v-1024h-1024v1024h1024zM996.324 932.324h-968.649v-968.649h968.649v968.649z" />
<glyph unicode="&#xe903;" d="M440.32 383.792v135.611h-0.277v136.164h-135.611v-407.109h135.888z" />
<glyph unicode="&#xe904;" d="M440.32 519.403h133.95v-135.611h-133.95z" />
<glyph unicode="&#xe905;" d="M711.265 655.568h-270.945v-135.888h133.95v-0.277h136.995z" />
<glyph unicode="&#xe906;" glyph-name="account" d="M576.762-59.418c251.782 31.992 447.238 247.093 447.238 507.429 0 282.305-229.69 511.989-511.998 511.989h-0.002c-0.517 0-1.014-0.077-1.531-0.078-281.093-0.838-509.563-229.307-510.393-510.394-0.002-0.511-0.077-1.005-0.077-1.517v-0.002c0-224.418 145.356-415.118 346.695-484.083 0.955-0.337 1.853-0.816 2.809-1.148 0.457-0.158 0.905-0.341 1.364-0.499 0.451-0.155 0.925-0.235 1.376-0.388 10.972-3.616 22.197-6.587 33.48-9.465 0.984-0.257 1.943-0.576 2.929-0.828 6.006-1.531 11.919-3.324 17.991-4.626 0.219-0.047 0.443-0.063 0.663-0.108 4.997-1.044 10.15-1.604 15.197-2.498 1.183-0.212 2.374-0.381 3.559-0.585 28.191-4.859 56.804-7.992 85.885-7.771 0.009 0 0.019 0.002 0.028 0.002 0.915-0.003 1.806 0.144 2.72 0.146 17.203 0.090 34.223 0.971 50.991 2.727 0.096 0.011 0.193 0.005 0.287 0.016 2.877 0.309 5.676 0.943 8.542 1.304 0.755 0.096 1.491 0.278 2.246 0.376zM512 888.759c243.045 0 440.753-197.722 440.753-440.748 0-116.156-45.501-221.649-119.195-300.465-4.267 0.677-8.499 1.537-12.858 1.704h-127.303c-30.61 2.595-56.19 24.348-63.666 54.142 0 25.448 3.192 82.64 3.192 82.64 16.074 28.622 29.935 58.429 41.466 89.164 9.548-3.191 25.449 12.739 25.449 22.285 0 12.737 22.285 41.376 28.641 76.37 6.354 31.831-15.902 38.184-31.833 41.376 0 9.547-3.192 22.285-3.192 31.831v57.278c-1.080 99.772-81.728 180.376-181.508 181.409-63.692 1.492-123.725-29.683-159.136-82.64-3.936-4.38-6.187-10.015-6.356-15.9-5.21-12.135-8.433-25.028-9.546-38.186-3.674-14.593-5.804-29.53-6.356-44.567v-6.355c-2.463-16.857-3.529-33.89-3.192-50.923-2.487-10.42-3.561-21.125-3.192-31.831-17.965 1.932-34.096-11.063-36.029-29.027-0.445-4.145-0.096-8.336 1.031-12.351 8.061-25.99 17.624-51.49 28.641-76.37 0-12.737 19.095-28.639 28.641-19.092 10.311-32.756 25.316-63.846 44.543-92.3 0-6.354 3.192-60.47 3.192-79.562 0-22.284-38.187-54.144-60.473-54.144h-146.37c-0.405-0.036-0.776-0.203-1.179-0.247-71.142 78.301-114.923 181.885-114.923 295.76 0 243.026 197.723 440.748 440.753 440.748z" />
<glyph unicode="&#xe907;" glyph-name="beast-guides" horiz-adv-x="1039" d="M417.094 529.229h16.272l-8.25 76.398-8.023-76.398zM510.697 405.677h-8.955v-148.54h7.545c9.672 0 12.254 4.95 12.254 16.033v116.475c0 12.028-3.060 16.033-10.844 16.033zM1038.61 446.003l-465.204 513.996v-196.711l-7.305 1.196-565.874 87.708c22.955-37.853 43.431-77.155 61.298-117.658 19.306-42.835 35.154-87.145 47.393-132.507 13.615-49.57 20.826-100.678 21.461-152.080-0.57-51.343-7.861-102.39-21.688-151.839-12.318-45.016-28.165-88.991-47.393-131.515-17.943-40.008-38.417-78.831-61.298-116.236l573.178 88.892v-203.251l465.432 510.004zM285.531 227.163h-18.185c-0.239 1.196-2.834 11.322-5.189 20.325-4.267-12.553-15.362-21.542-28.527-23.111l-2.152-0.012c-18.628 0-29.89 16.499-29.89 37.721v129.22c0 23.111 8.728 44.56 38.666 44.56h6.133c33.715 0 37.494-21.927 37.494-46.449v-21.221h-30.655v23.338c0 9.195-2.116 14.144-9.899 14.144-6.36 0-9.672-4.711-9.672-14.144v-120.754c0-9.673 3.3-14.622 10.377-14.622 8.022 0 11.788 5.655 11.788 13.439v51.637h-14.144v31.6h43.855v-125.668zM287.42 542.212v-44.799c0-21.927-9.672-37.721-33.25-37.721h-51.637v206.299h49.27c25.932 0 33.011-13.677 33.011-33.716v-31.36c1.739-11.907-4.594-23.532-15.543-28.527 12.475-4.44 20.074-17.076 18.149-30.177zM298.025 666.22h71.437v-30.129h-40.089v-54.232h31.36v-31.36h-31.36v-59.648h41.738v-31.468h-73.087v206.838zM391.628 271.986c0-29.232-11.549-47.393-39.371-47.393h-5.655c-27.821 0-39.144 17.444-39.144 47.393v161.751h32.066v-163.628c0-8.955 3.060-14.622 9.899-14.622 7.544 0 10.377 5.655 10.377 14.622v163.628h31.827v-161.751zM409.55 459.442h-28.060l25.227 206.838h37.494l26.877-206.838h-30.177l-4.244 38.905h-23.111l-4.005-38.905zM446.565 227.138h-31.36v206.838h31.36v-206.838zM553.846 268.22c0-25.466-9.433-41.020-35.366-41.020h-48.099v206.538h48.099c26.877 0 35.366-15.327 35.366-39.61v-125.908zM560.72 512.25v-6.6c0-30.177-12.733-48.338-40.554-48.338h-6.133c-25.228 0-38.427 13.678-38.427 39.144v41.498h31.086v-36.035c0-9.672 3.3-14.346 10.377-14.346 7.544 0 10.377 4.71 10.377 17.683v4.71c1.015 12.861-3.636 25.525-12.733 34.672l-20.014 25.43c-12.065 14.228-18.225 32.533-17.217 51.159v6.6c0 27.822 13.917 40.315 38.665 40.315l5.631-0.036c25.932 0 35.868-11.322 35.868-35.868v-33.955h-30.177v29.711c0 6.838-1.411 12.254-8.955 12.254s-9.195-4.71-9.195-14.347v-3.778c-0.236-11.828 4.363-23.24 12.733-31.6l20.038-25.932c13.085-14.179 19.813-33.085 18.627-52.343zM650.043 227.138h-73.086v206.838h71.436v-30.129h-40.088v-54.232h31.36v-31.36h-31.36v-59.648h41.738v-31.468zM667.75 305.653h31.086v-35.975c0-9.672 3.3-14.347 10.377-14.347 7.545 0 10.378 4.711 10.378 17.683v4.711c1.014 12.861-3.636 25.525-12.733 34.672l-20.003 25.43c-12.064 14.227-18.224 32.533-17.217 51.159v6.6c0 27.821 13.917 40.315 38.666 40.315h5.655l-0.024-0.275c25.932 0 35.868-11.322 35.868-35.868v-33.955h-30.177v29.89c0 6.839-1.411 12.255-8.955 12.255s-9.195-4.711-9.195-14.347v-3.779c-0.237-11.828 4.362-23.241 12.733-31.6l20.038-25.932c13.085-14.179 19.813-33.085 18.627-52.343v-6.6c0-30.177-12.733-48.337-40.554-48.337h-6.133c-25.227 0-38.439 13.677-38.439 39.144v41.499zM570.345 636.102v29.89h83.942v-29.89h-26.411v-176.601h-31.085v176.601h-26.446zM253.932 598.752v26.171c0 8.728-2.116 12.972-10.844 12.972l-9.433 0.036v-53.527h9.433c8.728 0 10.844 5.894 10.844 14.347zM243.088 553.522h-9.433v-65.076h9.433c9.899 0 12.254 4.71 12.254 13.917v37.721c0 8.728-2.116 13.438-12.254 13.438z" />
<glyph unicode="&#xe908;" horiz-adv-x="1179" d="M1165.188 960v-802.133l-97.745 37.236-80.679-245.139-179.976 186.182-178.424-186.182-80.679 245.139-243.588-91.539 35.685 254.448-259.103 23.273 144.291 214.109-224.97 130.327 224.97 131.879-69.818 102.4h1010.036zM879.709 902.594h-21.721c-57.406-7.758-105.503-46.545-136.533-111.709-4.655-9.309-7.758-18.618-10.861-27.927-4.655 6.206-9.309 12.412-13.964 20.17-40.339 44.994-88.436 69.818-139.636 69.818h-21.721c-58.958-7.758-107.055-46.545-136.533-111.709-24.824-58.958-32.582-122.57-23.273-186.182 7.758-63.612 32.582-122.57 72.921-173.77 40.339-44.994 88.436-69.818 139.636-69.818h21.721c57.406 7.758 105.503 46.545 136.533 111.709 4.655 9.309 7.758 18.618 10.861 27.927 4.655-6.206 9.309-12.412 13.964-20.17 40.339-46.545 88.436-71.37 139.636-71.37h21.721c57.406 7.758 107.055 46.545 136.533 111.709v1.552c24.824 58.958 34.133 122.57 23.273 186.182-7.758 63.612-34.133 122.57-72.921 173.77-40.339 44.994-88.436 69.818-139.636 69.818z" />
<glyph unicode="&#xe909;" glyph-name="cheatsheet" d="M999.482 604.628l-10.386-58.268h-100.958l9.808 55.095c6.345 38.651-6.634 54.804-37.21 54.804-46.153 0-53.364-37.21-53.364-67.785 0-29.134 12.981-44.421 32.306-69.516l55.095-70.96c33.171-43.845 58.843-73.554 58.843-137.303 0-72.69-25.673-182.59-156.628-182.59h-17.019c-100.958 0-154.898 48.461-139.033 140.477l14.711 82.497h102.401l-12.692-73.554c-7.5-42.115 12.114-59.134 43.555-59.134 45.864 0 54.806 47.884 54.806 85.671 0 26.826-11.25 43.556-30.576 68.652l-56.537 71.247c-29.998 36.923-56.535 71.824-56.535 137.88 0 84.227 34.613 160.090 152.59 160.090h17.019c25.96 0 49.035-2.884 68.074-9.52-92.016 137.302-248.356 227.588-425.753 227.588-282.681 0-512-229.319-512-512 0-141.342 57.401-269.414 149.995-362.005 92.592-92.593 220.664-149.995 362.005-149.995 282.681 0 512 229.319 512 512 0 54.517-8.653 107.303-24.518 156.628zM608.63 584.437l-12.114-68.652h-101.535l12.116 67.787c7.211 42.69-4.905 65.477-40.384 65.477-31.729 0-44.421-24.229-51.632-65.477l-52.787-296.528c-7.211-42.69 5.769-66.055 38.94-66.055 35.481 0 46.153 25.673 53.364 66.921l17.018 96.342h101.535l-18.461-105.861c-13.845-77.593-41.248-151.148-145.378-151.148h-19.326c-100.382 0-150.283 60.574-132.4 163.262l52.498 297.97c17.595 100.958 57.979 152.59 152.59 152.59h16.153c106.438 0 147.687-53.94 129.803-156.628v0z" />
<glyph unicode="&#xe90a;" glyph-name="config" d="M1024 499.234c0 27.833-7.476 35.597-35.285 38.374-39.472 3.972-78.884 8.422-118.355 12.453-5.024-0.092-9.432 3.328-10.586 8.212-4.136 15.383-10.067 30.227-17.673 44.228-10.257 15.917-5.652 25.892 5.173 38.494 23.743 27.624 46.050 56.501 68.986 84.812 11.631 12.688 10.761 32.391-1.944 44.006-0.294 0.269-0.593 0.532-0.897 0.789-27.152 27.355-53.556 55.486-82.113 81.467-10.683 10.359-27.396 11.215-39.083 2.001-7.924-5.973-15.31-12.572-23.025-18.814-25.318-20.486-50.655-40.923-76.013-61.31-3.947-3.166-8.074-5.823-13.486-2.628-17.803 9.533-36.427 17.449-55.649 23.652-6.555 1.822-10.998 7.903-10.735 14.693-3.738 40.853-8.014 81.677-12.529 122.44-0.371 14.595-12.062 26.376-26.673 26.877-8.815 0.831-17.673 1.12-26.524 0.866-30.86 0-61.719 0.508-92.698-0.329-21.769-0.597-29.454-8.272-31.757-29.236-4.366-39.718-8.612-79.467-12.44-119.245 0.233-8.379-5.507-15.751-13.695-17.589-10.404-2.313-20.41-6.147-29.693-11.378-16.050-13.966-40.398-12.293-54.382 3.736-1.143 1.31-2.196 2.696-3.151 4.148-0.978 1.014-2.049 1.934-3.2 2.747-24.131 19.68-48.113 39.539-72.454 58.95-11.781 11.723-30.847 11.687-42.585-0.078-0.714-0.716-1.392-1.467-2.030-2.251-26.284-26.011-52.33-52.59-78.943-78.541-13.261-10.823-15.303-30.299-4.575-43.63 6.728-8.959 14.204-17.649 21.381-26.399 19.696-24.209 39.422-48.349 59.178-72.419 3.824-3.948 4.216-10.082 0.927-14.484-9.918-17.578-17.755-36.249-23.354-55.636-0.841-4.624-4.834-8.012-9.539-8.093-21.171-1.991-42.313-4.151-63.424-6.48-22.905-2.538-45.841-4.688-68.567-8.302-12.987-0.522-23.090-11.46-22.568-24.429 0.027-0.679 0.084-1.356 0.17-2.030-0.21-40.375-0.001-80.631-0.001-121.096-0.226-8.288 3.435-16.207 9.898-21.412 7.267-5.169 15.958-7.965 24.879-8.003 38.874-4.121 77.478-8.362 116.262-12.124 6.932 0.117 12.935-4.78 14.204-11.587 5.010-18.096 12.316-35.478 21.739-51.723 3.75-5.302 2.982-12.56-1.794-16.963-26.225-31.596-52.12-63.43-78.016-95.235-11.641-11.699-11.583-30.607 0.131-42.233 0.563-0.558 1.147-1.094 1.753-1.606 26.235-26.658 52.679-53.157 79.332-79.497 10.498-13.472 29.943-15.893 43.433-5.409 1.286 1 2.491 2.099 3.604 3.289 31.577 25.712 63.364 51.156 94.822 76.988 3.818 3.767 9.718 4.445 14.294 1.642 18.121-8.033 36.392-15.798 54.991-22.696 6.597-1.687 11.143-7.715 10.944-14.513 3.648-39.45 7.416-78.899 12.141-118.229 2.99-24.518 12.709-32.521 37.348-32.342 35.883 0.299 71.587-0.926 107.381 0.896 22.308 1.135 30.979 7.496 33.521 29.864 4.575 40.405 8.582 80.9 12.44 121.395-0.123 6.156 4.014 11.586 9.987 13.11 17.424 4.854 34.216 11.74 50.027 20.516 10.974 6.898 17.463 2.986 25.597-3.733 29.394-24.428 59.088-48.498 88.721-72.628 12.563-12.667 33.030-12.766 45.714-0.22 1.078 1.067 2.080 2.208 2.998 3.415 24.441 25.066 49.28 49.752 74.518 74.061 14.342 9.497 18.26 28.807 8.751 43.131-1.257 1.893-2.717 3.643-4.355 5.218-25.208 31.924-50.835 63.52-76.581 95.085-3.618 4.479-6.22 8.302-2.841 14.155 9.452 17.84 17.153 36.553 22.995 55.875 1.385 5.947 6.714 10.141 12.828 10.094 38.874 3.823 77.478 8.392 116.262 11.945 27.78 2.628 35.883 10.811 35.883 39.002v101.984zM512.663 242.707c-113.571-0.621-206.142 90.822-206.764 204.243s90.941 205.871 204.512 206.492c113.571 0.621 206.142-90.822 206.764-204.243 0.006-1.061 0.003-2.121-0.007-3.182-1.013-112.224-92.13-202.808-204.505-203.31z" />
<glyph unicode="&#xe90b;" glyph-name="crosswords" horiz-adv-x="1067" d="M1066.693 104.538l-170.010 793.018-79.788-16.815-17.012 79.236-799.855-168.359 87.837-409.719 0.076 0.016 82.285-383.354 79.611 16.802 17.020-79.385 799.837 168.561zM418.784 851.848l0.086 0.018v0.003l0.089 0.018v-0.003l0.059 0.013v0.003l359.693 75.801 76.504-356.857-359.957-75.706-76.473 356.71zM501.318 468.824l359.9 75.643 76.315-356.724-359.792-75.665-76.423 356.746zM474.366 462.711l76.599-356.772-359.606-75.625-76.99 356.832 359.996 75.565z" />
<glyph unicode="&#xe90c;" glyph-name="email" d="M0 960v-1024h1024v1024h-1024zM996.324-36.324h-968.649v968.649h968.649v-968.649zM682.206 584.441h-319.101c-21.863 0-39.853-17.988-39.853-39.853v-239.393c0-21.865 17.713-39.853 39.853-39.853h319.101c22.14 0 39.853 17.988 39.853 39.853v239.393c0 22.14-17.713 39.853-39.853 39.853zM682.206 504.735l-159.689-99.632-159.412 99.632v39.853l159.412-99.632 159.689 99.632v-39.853z" />
<glyph unicode="&#xe90d;" glyph-name="free" d="M465.92 555.914h-10.551l-12.877-83.688h12.101c12.102 0 15.515 7.341 17.532 20.392l6.516 43.72c2.017 13.051-0.31 19.576-12.722 19.576zM465.92 555.914h-10.551l-12.877-83.688h12.101c12.102 0 15.515 7.341 17.532 20.392l6.516 43.72c2.017 13.051-0.31 19.576-12.722 19.576zM1024 447.918l-171.133 116.479 73.387 200.004-203.559-11.583-52.441 207.182-158.255-135.24-158.255 135.24-52.441-207.182-203.559 11.583 73.387-200.004-171.133-116.479 171.133-116.316-73.387-200.004 203.559 11.583 52.441-207.182 158.255 135.076 158.255-135.076 52.441 207.182 203.559-11.583-73.387 200.004 171.133 116.316zM360.417 426.711h-42.356l-20.169-133.771h-42.822l45.77 304.41h96.97l-6.671-44.209h-53.993l-12.101-80.263h42.356l-6.982-46.167zM504.398 421.817l-15.515-103.102c-1.706-7.831-1.552-15.988 0.311-23.655l-0.311-2.121h-42.511c-2.017 8.483-2.172 17.292-0.311 25.776l13.653 90.050c2.637 15.988 0.311 20.066-12.412 20.066h-10.861l-20.791-135.892h-42.821l45.924 304.41h64.544c30.875 0 45.149-14.682 40.494-46.983l-8.068-54.487c-0.62-16.803-10.395-31.812-24.979-38.5 11.792-7.178 17.377-21.86 13.653-35.563zM616.107 339.108l-7.137-46.168h-99.142l45.925 304.41h96.814l-6.516-44.209h-54.148l-12.102-79.773h42.511l-6.982-46.168h-42.511l-13.188-88.092h56.475zM765.828 553.141h-53.992l-12.102-79.773h42.357l-6.982-46.168h-42.356l-13.188-88.092h56.32l-6.982-46.168h-99.141l45.924 304.41h96.814l-6.671-44.209zM465.92 555.914h-10.551l-12.877-83.688h12.101c12.102 0 15.515 7.341 17.532 20.392l6.516 43.72c2.017 13.051-0.31 19.576-12.722 19.576zM465.92 555.914h-10.551l-12.877-83.688h12.101c12.102 0 15.515 7.341 17.532 20.392l6.516 43.72c2.017 13.051-0.31 19.576-12.722 19.576zM465.92 555.914h-10.551l-12.877-83.688h12.101c12.102 0 15.515 7.341 17.532 20.392l6.516 43.72c2.017 13.051-0.31 19.576-12.722 19.576z" />
<glyph unicode="&#xe90e;" glyph-name="menu-arrow-obs" d="M512 960c-282.769 0-512-229.231-512-512s229.231-512 512-512 512 229.231 512 512-229.231 512-512 512zM512 38.4c-225.853 0-409.6 183.747-409.6 409.6s183.747 409.6 409.6 409.6 409.6-183.747 409.6-409.6-183.747-409.6-409.6-409.6zM554.8 662.275c-9.925 9.45-22.050 14.25-36.575 14.125-13.65-0.325-26.375-5.975-35.775-15.85-19.75-20.65-19.75-53.050 0.15-73.875l86-88.3h-232.975c-29 0-52.575-23.575-52.575-52.575s23.575-52.6 52.575-52.6h232.925l-86.050-88.35c-19.9-20.65-19.875-53 1.65-75.25 9.6-9.1 22.075-14.1 35.275-14.1h1.275c13.675 0.35 26.425 6 35.65 15.7l173.25 177.975c19.95 20.625 19.95 52.975-0.050 73.675l-174.75 179.425z" />
<glyph unicode="&#xe90f;" d="M512 960c-281.6 0-512-230.4-512-512s230.4-512 512-512 512 230.4 512 512-230.4 512-512 512zM512 38.4c-225.28 0-409.6 184.32-409.6 409.6s184.32 409.6 409.6 409.6 409.6-184.32 409.6-409.6-184.32-409.6-409.6-409.6z" />
<glyph unicode="&#xe910;" d="M568.32 647.68c-25.6 25.6-61.44 30.72-81.92 15.36-15.36-10.24-15.36-35.84-15.36-35.84 0-20.48 10.24-35.84 10.24-35.84l87.040-87.040h-235.52c-30.72 0-51.2-25.6-51.2-51.2s25.6-51.2 51.2-51.2h235.52l-87.040-87.040c-20.48-20.48-20.48-51.2 0-71.68l10.24-10.24c10.24-5.12 15.36-10.24 25.6-10.24 15.36 0 25.6 5.12 35.84 15.36l174.080 179.2c20.48 20.48 20.48 51.2 0 71.68-56.32 56.32-107.52 107.52-163.84 163.84z" />
<glyph unicode="&#xe911;" glyph-name="nav-burger" horiz-adv-x="1405" d="M0 960h1405.066v-160.060h-1405.066v160.060zM0 527.999h1405.066v-160.060h-1405.066v160.060zM0 96.059h1405.066v-160.060h-1405.066v160.060z" />
<glyph unicode="&#xe912;" glyph-name="nav-close" d="M625.665 448l398.335-397.825-114.175-114.175-397.826 398.334-398.335-398.334-113.663 114.175 397.823 397.825-397.823 398.334 113.663 113.666 398.335-397.825 397.826 397.825 114.175-113.666-398.335-398.334z" />
<glyph unicode="&#xe913;" glyph-name="newsletter-sm" horiz-adv-x="1638" d="M1638.146 938.367c-0.254 1.956-0.761 3.668-1.269 5.625-0.254 0.49-0.254 1.223-0.508 1.712-0.252 0.245-0.507 0.49-0.507 0.733-0.254 0.245-0.254 0.734-0.508 0.979-2.791 4.892-7.106 8.316-11.928 10.518-0.762 0.245-1.27 0.245-1.777 0.49-1.523 0.488-3.046 0.978-4.823 1.223-0.762 0.245-1.523 0.245-2.539 0.245h-1.269c-1.269 0-2.791 0.243-4.060 0l-1586.823-195.924c-9.645-1.223-17.767-7.582-20.813-16.633-3.046-8.807-0.761-18.59 6.091-25.194l274.369-260.009 35.534-442.968c0.761-7.827 5.076-14.92 12.182-19.079 0.762-0.243 1.523-0.243 2.285-0.733 2.537-1.223 5.583-2.202 8.629-2.69h0.762c6.091-0.49 11.676 0.978 16.498 3.913l262.185 108.112 151.526-164.37c2.537-2.69 5.329-4.892 8.629-6.115 3.3-1.468 6.853-2.202 10.407-2.202h0.507c1.016 0 2.031 0.49 3.046 0.734 3.554 0.49 6.599 1.468 9.645 3.18 2.285 1.468 4.823 2.935 6.599 5.136l17.767 21.037 804.833 953.935c2.029 2.201 3.3 4.647 4.060 7.338 0.508 0.733 0.508 1.468 0.762 2.445 0.507 1.712 0.761 3.67 0.761 5.627 0 0.978 0 1.711-0.254 2.935zM1406.925 885.288l-748.232-276.641-498.484 123.034 1246.716 153.607zM327.471 486.347c-1.016 1.468-2.031 2.935-3.3 4.403l-213.962 202.774 466.502-115.207-249.24-91.969zM387.116 65.882l77.666 213.046 120.306-131.35-197.972-81.697zM495.239 319.776l237.312 124.746 27.666-414.351-264.978 289.604zM442.954 347.905c-2.285-0.978-3.808-2.69-5.585-4.403l-0.254 0.245c-0.252-0.49-0.507-0.979-1.015-1.224-0.508-0.488-0.761-0.978-1.269-1.468-1.523-1.956-2.791-4.158-3.808-6.358l-71.575-196.658-24.619 298.656 931.991 344.639-823.867-433.428zM811.485 24.301l-29.695 446.148 730.467 384.020-700.772-830.169z" />
<glyph unicode="&#xe914;" glyph-name="newsletter" horiz-adv-x="1365" d="M1331.353 958.105l-1318.571-379.221c-8.192-2.048-13.31-9.558-12.629-17.75 0.342-4.777 2.39-8.533 5.121-11.604 1.365-2.048 2.731-4.096 4.779-5.804l266.581-207.188c-0.342-2.39-0.342-4.779 0.34-7.51l94.55-332.117c1.706-5.802 6.485-10.581 12.288-11.948 1.367-0.34 3.073-0.681 4.437-0.681h3.756c4.435 0 8.873 1.706 12.288 5.119l139.604 140.629 240.3-190.463c3.071-2.39 7.167-3.413 10.923-3.413 3.413 0 6.825 1.023 9.898 3.071 3.071 2.39 5.46 5.46 6.485 9.217 0.342 0.681 1.023 0.681 1.023 1.365l548.864 980.65c12.288 25.258-5.802 33.792-30.037 27.648zM1221.787 890.18l-671.404-389.802-6.827 1.023c-0.34 0.342-0.681 0.342-1.023 0.683l-34.133 4.779-408.577 60.756 1121.964 322.56zM83.439 531.097l403.115-56.66-191.488-107.86-211.627 164.521zM398.489 273.391c-4.435-3.071-7.167-8.192-7.167-13.652 0-3.073 0.683-5.804 1.706-8.194l-11.946-161.108-66.902 235.179 238.933 139.263c0.342-0.34 0.683-0.34 0.683-0.34 3.071 0 6.144 1.023 8.875 2.388l494.592 287.062-429.74-314.71c-0.683-0.681-1.023-1.706-1.706-2.729l-227.329-163.158zM412.826 47.77l12.971 175.446 90.452-71.34-103.423-104.106zM437.743 258.713l194.219 139.265 128.683-394.923-322.902 255.658zM801.264 1.007l-70.656 207.19-69.292 212.308 635.223 465.579-495.275-885.077z" />
<glyph unicode="&#xe915;" glyph-name="next-cheat" horiz-adv-x="945" d="M581.75 361.039l-8.372-79.436h17.038l-8.667 79.436zM758.691 400.008l80.306 559.992s-184.254-132.094-367.345-132.094-365.020 132.094-365.020 132.094l80.306-559.992h-189.932l470.812-464.008 474.418 464.008h-183.546zM379.288 303.564v-94.462h-32.641v214.91h32.641v-86.077h22.244v86.077h32.641v-214.91h-32.641v94.462h-22.244zM288.032 394.846c-8.090 0-10.115-4.628-10.115-14.154v-127.68c0-9.821 3.462-14.731 10.397-14.731 7.795 0 10.692 5.487 10.692 14.436v49.974h32.064v-49.679c0-23.115-7.808-46.513-39-46.513h-7.218c-33.218 0-40.154 23.692-40.154 45.359v131.141c0 21.949 9.526 43.038 39 43.038h7.5c35.821 0 39.872-23.692 39.872-44.769v-38.423h-32.064v37.846c0 9.244-2.897 14.154-10.974 14.154zM324.635 458.538l-36.865 146.103v-146.103h-34.814v253.962h34.814l33.115-136.192v136.192h35.154v-253.962h-31.404zM376.859 458.538v253.962h87.724v-36.859h-49.154v-66.564h38.571v-38.577h-38.571v-73.385h51.199v-38.577h-89.769zM451.494 424.013h74.231v-31.192h-41.59v-56.333h32.641v-32.641h-32.641v-62.103h43.333v-32.641h-75.974v214.91zM481.295 712.5h39.263l16.385-80.218 15.705 80.218h37.539l-29.013-118.103 32.769-135.859h-39.936l-19.115 91.821-19.462-91.821h-38.91l33.449 135.859-28.673 118.103zM622.468 392.821v31.192h87.231v-31.192h-27.436v-183.718h-32.359v183.718h-27.436zM704.199 675.641h-32.436v-217.103h-38.231v217.103h-32.423v36.859h103.090v-36.859zM601.686 424.013l28.013-214.91h-31.487l-4.333 40.436h-23.974l-4.038-40.436h-29.18l26.295 214.91h38.705z" />
<glyph unicode="&#xe916;" glyph-name="photo" d="M0 960v-1024h1024v1024h-1024zM996.324-36.324h-968.649v968.649h968.649v-968.649zM511.557 355.894c40.307 0.108 72.958 32.757 73.064 73.064-0.107 40.307-32.757 72.958-73.064 73.064-40.307-0.107-72.958-32.757-73.064-73.064 0.107-40.307 32.757-72.956 73.064-73.064zM465.284 426.522c-0.015 25.542 20.677 46.259 46.218 46.274 0.019 0.002 0.037 0.002 0.056 0 25.54 0.017 46.259-20.677 46.274-46.218v-0.056c0.015-25.54-20.677-46.259-46.218-46.274h-0.056c-25.54-0.015-46.259 20.677-46.274 46.219v0.054zM364.985 309.733c0.112-0.002 0.223-0.002 0.334 0h294.801c10.608-0.093 19.281 8.433 19.373 19.039 0.002 0.112 0.002 0.223 0 0.334v204.578c-2.103 10.309-11.409 17.547-21.919 17.049h-90.002c-18.162 48.12-93.201 48.791-109.596 0h-94.982c-9.169 0.247-16.801-6.983-17.049-16.15-0.009-0.301-0.009-0.6 0-0.899v-204.578c-0.093-10.608 8.433-19.282 19.039-19.373zM421.334 426.524c-0.123 49.645 40.024 89.99 89.669 90.113 0.184 0 0.368 0 0.554-0.002 49.645 0.123 89.99-40.022 90.111-89.667v-0.444c0.123-49.645-40.024-89.99-89.669-90.111h-0.554c-49.645-0.123-89.99 40.024-90.111 89.669v0.443z" />
<glyph unicode="&#xe917;" glyph-name="podcast" horiz-adv-x="1059" d="M815.122 510.18c-8.526 3.704-17.386 6.711-26.816 8.092l-5.383 0.803c-5.624 0.818-11.347 1.183-17.009 1.086-24.931-0.424-49.073-9.752-67.98-26.268-19.11-16.692-31.638-39.678-35.284-64.782l-47.636-330.986c-8.193-57.962 32.13-111.797 89.916-120.088l5.272-0.786c5.624-0.816 11.349-1.182 17.012-1.086 2.817 0.049 5.563 0.614 8.353 0.886 8.88-14.748 23.822-25.689 42.176-28.375l5.253-0.776c26.715-3.763 51.571 10.961 62.263 34.331 14.42-9.406 30.848-16.167 48.995-18.826 66.813-9.436 128.714 36.834 138.575 103.585l19.671 136.228c4.223 30.155-3.342 59.006-18.562 82.807 1.975 32.079-5.283 63.62-20.854 91.683 2.356 54.299-5.623 107.924-22.902 158.423-5.95 44.976-17.925 88.691-36.404 130.389-25.088 56.611-60.476 107.226-105.181 150.438s-96.492 76.86-153.922 100.010c-59.485 23.979-122.405 35.581-187.019 34.482-64.612-1.099-127.104-14.833-185.737-40.82-56.61-25.090-107.223-60.479-150.434-105.187s-76.859-96.495-100.009-153.926c-23.978-59.486-35.579-122.41-34.482-187.023 0.401-23.577 3.081-46.72 6.815-69.624-32.083-37.243-47.823-88.041-38.512-140.082l24.278-135.585c7.1-39.681 28.322-75.607 59.758-101.162 27.009-21.955 60.007-35.024 94.259-37.606 26.841-22.572 62.758-33.965 99.975-27.412 15.773 2.866 30.172 8.803 42.989 16.816 2.328 0.173 4.644 0.358 6.958 0.682 12.13-21.196 36.431-33.685 61.844-29.21l5.223 0.955c32.257 5.834 53.73 36.644 48.038 68.926l-58.829 329.142c-1.507 8.239-4.68 15.739-9.051 22.292l-11.008 61.568c-4.487 24.905-17.788 47.451-37.455 63.485-19.457 15.863-43.901 24.366-68.832 23.942-5.5-0.094-11.038-0.664-16.475-1.617 30.042 88.168 94.566 164.383 185.939 206.224 19.19 8.787 45.749 20.874 83.029 26.164 7.545 1.071 35.455 4.693 70.415 0.449 27.692-3.362 102.104-12.397 161.522-73.834 59.876-61.911 66.203-137.411 67.25-158.828zM726.416 22.93c-3.127-0.053-6.3 0.144-9.491 0.608l-5.259 0.784c-32.331 4.59-54.927 34.817-50.342 67.257l47.62 330.869c4.695 32.332 34.923 55.040 67.254 50.342l5.259-0.785c32.331-4.7 55.039-34.924 50.339-67.255l-47.616-330.871c-4.236-29.141-29.206-50.463-57.765-50.948zM507.092 823.867c-193.995-3.3-348.485-163.25-345.189-357.142 0.079-4.658 0.697-9.164 0.953-13.774-7.002-0.368-14.029-0.806-20.935-2.042-20.273-3.628-38.939-10.914-55.728-20.798-1.139 11.634-2.231 23.289-2.433 35.177-4.055 238.594 186.106 435.338 424.692 439.395s435.322-186.109 439.377-424.701c0.204-12.018-0.542-23.824-1.306-35.618-17.541 9.658-36.751 16.321-57.107 19.252-8.075 1.163-16.271 1.563-24.412 1.546-0.383 0.674-0.812 1.324-1.21 1.991 0.060 3.859 0.49 7.628 0.424 11.516-3.297 194.001-163.131 348.496-357.126 345.198zM249.542 462.962l5.232 0.965c32.153 5.794 63.131-15.873 68.925-48.026l58.834-329.061c5.686-32.264-15.87-63.242-48.024-68.928l-5.232-0.963c-3.173-0.572-6.337-0.876-9.463-0.929-28.561-0.487-54.24 19.975-59.462 48.955l-58.834 329.061c-5.794 32.151 15.871 63.132 48.024 68.926zM150.159 404.869c1.283 0.23 2.536 0.103 3.816 0.29-0.036-6.389 0.327-12.847 1.5-19.357l58.845-329.122c1.671-9.272 4.934-18.035 8.921-26.438-1.941-0.447-3.704-1.272-5.684-1.626-6.494-1.162-12.976-1.781-19.378-1.89-58.841-1.001-111.889 41.045-122.565 100.712l-24.279 135.591c-11.837 66.161 32.665 130.001 98.824 141.839zM986.333 278.819l-19.661-136.23c-8.64-59.995-60.232-103.827-119.072-104.823-6.404-0.108-12.9 0.29-19.428 1.23-1.989 0.287-3.776 1.050-5.73 1.43 3.706 8.549 6.673 17.436 8.034 26.791l47.605 330.805c0.948 6.513 1.153 13.014 0.904 19.458 1.266-0.143 2.493 0.026 3.762-0.157 66.522-9.581 113.172-71.981 103.587-138.504z" />
<glyph unicode="&#xe918;" glyph-name="rss" d="M0 960v-1024h1024v1024h-1024zM996.324-36.324h-968.649v968.649h968.649v-968.649zM638.172 252.777h72.981c4.177 204.164-176.986 385.459-381.204 381.204v-72.814c165.221 3.37 311.505-143.25 308.223-308.39zM508.541 252.775h72.981c2.578 134.704-116.853 254.387-251.655 251.571v-72.731c95.853 2.049 180.824-82.98 178.674-178.84zM380.267 354.069c-65.63 0.687-65.407-101.809 0.162-100.961 65.752-0.867 65.502 101.933-0.162 100.961z" />
<glyph unicode="&#xe919;" horiz-adv-x="1179" d="M657.842 748.994c13.964-18.618 26.376-37.236 35.685-57.406l1.552 1.552c-4.655-29.479-3.103-60.509 1.552-89.988 3.103-32.582 12.412-63.612 24.824-93.091-4.655-23.273-10.861-46.545-20.17-69.818-23.273-49.648-57.406-79.127-100.848-85.333s-85.333 12.412-121.018 52.752c-35.685 41.891-57.406 94.642-63.612 148.945-7.758 54.303-1.552 110.158 20.17 161.358 23.273 49.648 57.406 79.127 100.848 85.333 43.442 4.655 85.333-13.964 121.018-54.303zM544.582 762.958c-55.855-7.758-93.091-88.436-86.885-179.976 10.861 44.994 37.236 77.576 72.921 82.23 52.752 7.758 105.503-51.2 116.364-130.327 7.758-54.303-4.655-103.952-31.030-133.43 48.097 24.824 77.576 105.503 65.164 193.939-13.964 100.848-76.024 175.321-136.533 167.564zM508.897 606.255c-13.964 0-26.376-12.412-26.376-26.376s12.412-26.376 26.376-26.376c13.964 0 26.376 12.412 26.376 26.376s-12.412 26.376-26.376 26.376zM862.642 854.497c43.442 6.206 85.333-13.964 121.018-54.303 34.133-41.891 55.855-94.642 63.612-148.945s1.552-110.158-20.17-161.358c-23.273-49.648-57.406-79.127-100.848-85.333-43.442-4.655-85.333 13.964-121.018 54.303-35.685 41.891-57.406 94.642-63.612 148.945-7.758 54.303-1.552 110.158 20.17 161.358 23.273 49.648 57.406 79.127 100.848 85.333zM1005.382 645.042c-13.964 100.848-76.024 178.424-136.533 169.115-55.855-7.758-93.091-88.436-86.885-179.976 10.861 44.994 37.236 77.576 72.921 82.23 52.752 7.758 105.503-51.2 116.364-130.327 7.758-55.855-6.206-107.055-34.133-134.982h1.552c49.648 21.721 79.127 103.952 66.715 193.939zM834.715 655.903c-4.655 0-7.758-1.552-10.861-1.552-9.309-4.655-15.515-10.861-15.515-24.824s12.412-26.376 26.376-26.376c9.309 0 17.067 4.655 21.721 12.412v-1.552c3.103 4.655 4.655 9.309 4.655 15.515 0 13.964-12.412 26.376-26.376 26.376z" />
<glyph unicode="&#xe91a;" glyph-name="search" d="M1024 72.895l-313.383 302.6c41.856 59.844 66.325 131.916 66.325 209.4 0 206.823-174.278 375.105-388.471 375.105s-388.471-168.282-388.471-375.105 174.278-375.105 388.471-375.105c61.148 0 118.821 14.090 170.337 38.502l323.419-312.291 141.773 136.895zM133.679 584.895c0 135.666 114.292 246.026 254.792 246.026s254.792-110.36 254.792-246.026-114.292-246.026-254.792-246.026-254.792 110.36-254.792 246.026z" />
<glyph unicode="&#xe91b;" glyph-name="social-fb-obs" d="M512 960c-282.881 0-512-229.119-512-512s229.119-512 512-512 512 229.119 512 512-229.119 512-512 512zM617.6 508.48c-1.279-24.641-2.561-48.961-3.52-74.24h-76.16v-203.52h-71.68c-5.76 0-7.359 1.279-7.041 7.039v196.16h-52.799v74.24h52.799v60.48c-0.639 22.398 6.4 44.478 20.16 62.398 12.801 15.041 30.080 25.602 49.602 30.080 17.92 4.16 36.158 5.441 54.398 4.48 9.92-0.32 19.522-1.6 29.441-2.24 3.52-0.32 4.799-1.92 4.799-5.76-0.639-14.080-0.639-28.16-1.279-42.24-0.32-7.039-0.961-14.080-1.6-21.76h-48.32c-3.84 0-8-0.32-11.84-1.6-9.6-1.6-16.32-9.92-16-19.84v-63.68h79.039z" />
<glyph unicode="&#xe91c;" glyph-name="social-fb" d="M536.335 502.611h71.402c-0.829-22.14-2.213-44.281-3.044-66.975h-69.189v-185.15h-5.811c-19.65 0-39.578 0.277-59.226 0-4.981 0-6.642 1.384-6.365 6.365v178.231h-47.88v67.529h47.88v54.799c-0.554 20.48 5.811 40.405 18.542 56.458 11.623 13.838 27.122 23.248 44.835 27.399 16.052 3.598 32.657 4.981 49.262 3.875 8.856 0 17.713-1.106 26.846-1.938 3.321-0.277 4.427-1.661 4.15-4.981-0.275-13.008-0.552-25.738-0.829-38.469-0.277-6.365-1.106-12.731-1.661-19.65h-43.728c-3.598 0-7.196-0.552-10.794-1.661-8.579-1.384-14.667-9.132-14.39-17.988v-57.843zM0 960v-1024h1024v1024h-1024zM996.324-36.324h-968.649v968.649h968.649v-968.649z" />
<glyph unicode="&#xe91d;" glyph-name="social-ig-obs" d="M596.16 448c0-23.039-9.279-44.16-24.641-59.52-15.359-15.361-36.48-24.641-59.52-24.641-46.4 0-84.16 37.76-84.16 84.16s37.76 84.16 84.16 84.16 84.16-37.76 84.16-84.16zM717.439 550.080c0 16-2.879 32-8.639 47.039-3.84 10.881-10.561 20.801-18.881 28.801-8 8.32-17.92 15.041-29.119 18.881-14.721 5.76-30.721 8.639-46.721 8.639-26.561 1.6-34.561 1.6-102.080 1.6s-75.52 0-102.080-1.6c-16 0-32-2.879-47.039-8.32-10.881-4.158-20.801-10.559-28.801-18.879-8.641-8.32-15.041-18.24-18.881-29.121-5.76-15.039-8.639-31.039-8.639-47.039-1.281-26.561-1.6-34.561-1.6-102.080s0.318-75.52 1.6-102.080c0-16 2.879-31.68 8.639-46.721 3.84-11.199 10.561-21.119 18.881-29.119 8-8.32 17.92-14.721 28.801-18.881 15.039-5.439 31.039-8.639 47.039-8.639 26.561-1.281 34.561-1.6 102.080-1.6s75.52 0.318 102.080 1.6c16 0 32 3.199 46.721 8.639 11.199 4.16 21.119 10.561 29.119 18.881 8.32 8 15.041 17.92 18.881 29.119 5.76 15.041 8.639 30.721 8.639 46.721 1.281 26.561 1.6 34.561 1.6 102.080s-0.318 75.52-1.6 102.080zM512 318.4c-71.68 0-129.6 57.92-129.6 129.6s57.92 129.6 129.6 129.6c35.84 0 68.16-14.4 91.52-38.080 23.68-23.359 38.080-55.68 38.080-91.52 0-71.68-57.92-129.6-129.6-129.6zM646.721 552.641c-16.641 0-30.080 13.439-30.080 30.080 0 16.959 13.439 30.398 30.080 30.398 16.959 0 30.398-13.439 30.398-30.398 0-16.641-13.439-30.080-30.398-30.080zM512 960c-282.881 0-512-229.119-512-512s229.119-512 512-512 512 229.119 512 512-229.119 512-512 512zM763.199 343.68c-0.318-20.799-4.478-41.6-11.84-61.439-13.119-33.92-40-60.48-73.92-73.6-19.52-7.361-40.32-11.522-61.119-11.84-27.201-1.281-35.52-1.602-104.32-1.602-68.48 0-77.119 0.32-104 1.602-21.119 0.318-41.92 4.478-61.439 11.84-16.961 6.080-32 16.32-44.801 29.119-12.799 12.48-22.721 27.84-29.119 44.801-7.361 19.52-11.201 40.32-11.84 61.119-1.281 26.881-1.281 35.52-1.281 104.32 0 68.48 0 77.119 1.281 104 0.639 21.119 4.478 41.6 11.84 61.439 6.398 16.641 16.32 32 29.119 44.801 12.801 12.799 27.84 22.721 44.801 28.799 19.52 7.361 40.32 11.522 61.439 11.842 26.881 1.279 35.52 1.6 104 1.6s77.119-0.32 104-1.6c21.119-0.32 41.6-4.16 61.439-11.522 16.961-6.398 32-16.32 44.801-29.119 12.799-12.801 22.721-28.16 29.119-44.801 7.361-19.84 11.201-40.639 11.84-61.439 1.281-26.881 1.602-35.52 1.602-104.32 0-68.48-0.32-77.119-1.602-104z" />
<glyph unicode="&#xe91e;" glyph-name="social-ig" d="M0 960v-1024h1024v1024h-1024zM996.324-36.324h-968.649v968.649h968.649v-968.649zM314.424 320.748c4.753-12.512 12.166-23.843 21.725-33.211 9.409-9.576 20.789-16.99 33.35-21.726 14.637-5.475 30.096-8.433 45.72-8.745 20.066-0.914 26.486-1.135 77.632-1.135s57.564 0.221 77.63 1.135c15.623 0.312 31.083 3.27 45.72 8.745 12.561 4.736 23.941 12.15 33.35 21.726 9.559 9.368 16.971 20.699 21.725 33.211 5.476 14.637 8.433 30.095 8.747 45.72 0.912 20.064 1.133 26.485 1.133 77.63s-0.221 57.51-1.245 77.63c-0.312 15.625-3.27 31.083-8.745 45.721-4.736 12.561-12.15 23.941-21.726 33.348-9.407 9.576-20.787 16.99-33.35 21.726-14.637 5.475-30.095 8.433-45.72 8.745-20.064 0.914-26.485 1.135-77.63 1.135s-57.566-0.221-77.63-1.135c-15.625-0.312-31.083-3.27-45.72-8.745-12.563-4.736-23.943-12.15-33.35-21.726-9.576-9.407-16.99-20.787-21.726-33.348-5.475-14.638-8.433-30.096-8.745-45.721-1.024-20.12-1.024-26.485-1.024-77.63s0.221-57.566 1.135-77.63c0.312-15.625 3.268-31.083 8.745-45.72zM339.581 520.179c0.138 11.944 2.329 23.779 6.476 34.982 2.946 8.154 7.674 15.547 13.838 21.642 6.11 6.272 13.554 11.086 21.78 14.088 11.203 4.147 23.037 6.338 34.982 6.476 19.845 0.912 25.794 1.106 76.081 1.106s56.236-0.194 76.081-1.106c11.944-0.138 23.779-2.329 34.982-6.476 8.226-3.002 15.671-7.816 21.78-14.088 6.255-6.071 11.068-13.466 14.088-21.642 4.147-11.203 6.338-23.037 6.476-34.982 0.912-19.845 1.106-25.794 1.106-76.081s-0.194-56.236-1.106-76.108c-0.221-11.951-2.497-23.775-6.726-34.954-3.014-8.179-7.828-15.576-14.086-21.642-6.071-6.255-13.466-11.068-21.643-14.088-11.204-4.145-23.036-6.346-34.982-6.504-19.843-0.885-25.794-1.079-76.081-1.079s-56.236 0.194-76.079 1.079c-11.946 0.157-23.777 2.358-34.983 6.504-8.176 3.020-15.571 7.833-21.642 14.088-6.179 6.088-10.917 13.483-13.865 21.642-4.145 11.194-6.336 23.019-6.476 34.954-0.914 19.872-1.106 25.821-1.106 76.108s0.193 56.236 1.106 76.081zM492.738 347.4c53.405 0 96.699 43.292 96.699 96.698s-43.294 96.699-96.699 96.699-96.699-43.294-96.699-96.699 43.294-96.698 96.699-96.698zM429.97 444.098c-0.015 34.652 28.063 62.753 62.713 62.769h0.056c34.665 0 62.769-28.101 62.769-62.769s-28.103-62.769-62.769-62.769c-34.65-0.015-62.753 28.063-62.769 62.714v0.054zM593.284 522.032c12.471 0 22.583 10.11 22.583 22.583 0 12.476-10.106 22.596-22.583 22.612-12.488 0-22.612-10.123-22.612-22.612v-0.027c0.015-12.473 10.138-22.571 22.612-22.556z" />
<glyph unicode="&#xe91f;" glyph-name="social-reedit" d="M0 960v-1024h1024v1024h-1024zM996.324-36.324h-968.649v968.649h968.649v-968.649zM296.135 408.755c-1.985-5.895-2.877-12.105-2.63-18.321 0-78.488 94.098-143.914 214.569-143.914 117.76 0 214.571 62.797 214.571 143.914 0.407 5.367-0.495 10.752-2.63 15.693 19.951 8.612 33.189 27.909 34.041 49.623-0.956 28.51-23.824 51.414-52.334 52.417-13.544-1.314-26.346-6.797-36.642-15.693-42.198 27.039-91.196 41.558-141.313 41.873l28.784 94.098 78.488-18.323v-2.628c0.061-23.127 18.857-41.824 41.983-41.762 23.127 0.061 41.824 18.858 41.762 41.983-0.061 23.073-18.774 41.747-41.845 41.763-17.807-0.003-34.059-10.152-41.873-26.154l-86.348 20.922c-5.232 0-7.86-2.63-7.86-5.232l-33.987-104.669c-51.204 1.71-101.618-12.959-143.914-41.873-10.289 8.547-23.267 13.182-36.642 13.091-28.48-1-51.335-23.856-52.334-52.334-0.741-18.667 9.48-36.049 26.154-44.476zM586.591 450.74c17.348 0 31.412-14.064 31.412-31.412 0.731-16.674-12.193-30.786-28.868-31.518-0.848-0.037-1.696-0.037-2.544-0.003v0.11c-17.348 0-31.412 14.064-31.412 31.412s14.064 31.412 31.412 31.412zM513.333 314.659c23.733-2.086 47.307 5.453 65.426 20.922 2.889 2.889 7.573 2.889 10.461 0 2.89-2.889 2.89-7.573 0-10.461-21.257-17.446-48.486-25.897-75.887-23.552-27.446-2.809-54.853 5.698-75.887 23.552-2.889 2.889-2.889 7.573 0 10.461s7.573 2.889 10.463 0c18.116-15.47 41.693-23.008 65.424-20.922zM408.664 419.218c0 17.348 14.064 31.411 31.412 31.411s31.412-14.063 31.412-31.411c0-17.35-14.064-31.412-31.412-31.412-16.677-0.671-30.742 12.306-31.412 28.983-0.032 0.809-0.032 1.62 0 2.429z" />
<glyph unicode="&#xe920;" glyph-name="social-tw-obs" d="M512 960c-282.881 0-512-229.119-512-512s229.119-512 512-512 512 229.119 512 512-229.119 512-512 512zM714.561 520c18.559-235.84-262.4-395.84-456.961-264.32 54.4-6.080 108.801 8.641 152.641 41.92-44.48 2.881-82.561 32.641-96 75.201 11.199-11.201 44.799 0 44.799 0-94.078 38.080-80.639 103.359-80.639 103.359 13.76-7.68 29.439-11.84 45.439-12.16-45.439 31.039-58.879 91.52-30.721 138.881 102.4-121.92 218.881-108.801 218.881-108.801-29.76 112.641 110.080 164.16 175.68 96.641 23.359 2.879 45.76 10.879 65.281 24-7.361-24.32-24-45.121-46.4-57.602 20.478 2.561 40.639 7.682 59.84 15.041-14.4-20.16-31.68-37.76-51.84-52.16z" />
<glyph unicode="&#xe921;" glyph-name="social-tb" d="M1024 960v-1024h-1024v1024h1024zM996.324 932.324h-968.649v-968.649h968.649v968.649zM631.345 627.892h63.687l-139.1-160.544 163.636-218.493h-128.095l-100.401 132.481-114.744-132.481h-63.777l148.752 171.751-156.871 207.286h131.342l90.659-121.091 104.911 121.091zM608.973 287.306h35.271l-227.684 304.14h-37.887l230.3-304.14z" />
<glyph unicode="&#xe922;" glyph-name="circle-left-arrow" d="M512 960c-281.6 0-512-230.4-512-512s230.4-512 512-512 512 230.4 512 512-230.4 512-512 512zM512 8.533c-243.2 0-439.467 196.267-439.467 439.467s196.267 439.467 439.467 439.467c243.2 0 439.467-196.267 439.467-439.467s-196.267-439.467-439.467-439.467zM755.2 482.133h-384l166.4 166.4c12.8 12.8 12.8 34.133 0 46.933s-34.133 12.8-46.933 0l-226.133-226.133c-12.8-12.8-12.8-34.133 0-46.933l226.133-226.133c12.8-12.8 34.133-12.8 46.933 0s12.8 34.133 0 46.933l-166.4 166.4h384c17.067 0 34.133 17.067 34.133 34.133s-17.067 34.133-34.133 34.133v4.267z" />
<glyph unicode="&#xe92a;" glyph-name="timer" horiz-adv-x="604" d="M489.92 588.902c38.542 42.489 60.731 97.291 62.606 154.625 0.062 2.266 0.094 4.538 0.094 6.814v58.15h51.557v151.509h-604.177v-151.509h51.542v-58.056c0.010-2.277 0.041-4.548 0.094-6.814 1.876-57.334 24.064-112.135 62.605-154.625l63.471-70.82c44.366-49.436 44.366-124.355 0-173.793l-63.471-70.82c-38.538-42.484-60.727-97.28-62.605-154.608-0.063-2.267-0.094-4.538-0.094-6.815v-24.631h-51.542v-151.509h604.177v151.509h-51.557v24.537c-0.011 2.277-0.042 4.548-0.094 6.814-1.876 57.329-24.065 112.126-62.606 154.609l-63.471 70.82c-44.358 49.439-44.358 124.353 0 173.793l63.471 70.82zM392.628 313.978l63.471-70.82c31.321-34.434 49.387-78.878 50.975-125.4v-30.249h-409.972v30.139c1.588 46.522 19.654 90.965 50.975 125.4l63.471 70.82c59.89 66.747 59.89 167.889 0 234.636l-63.471 70.82c-31.321 34.435-49.387 78.878-50.975 125.4v63.769h409.972v-63.658c-1.588-46.521-19.654-90.965-50.975-125.4l-63.471-70.82c-59.883-66.749-59.883-167.886 0-234.636zM558.536-18.439h-513.054v60.401h513.054v-60.401zM45.483 914.455h513.054v-60.402h-513.054v60.402zM159.802 720.659c0-1.574 0-3.148 0.079-4.722 1.445-31.158 14.124-60.738 35.694-83.268l63.817-68.224 42.682-40.178 42.681 40.178 63.817 68.286c21.57 22.531 34.25 52.111 35.694 83.269 0.053 1.542 0.079 3.116 0.079 4.721v52.926h-284.541v-52.988zM159.802 119.317h284.541v53.005c0 1.552-0.026 3.127-0.079 4.721-0.724 18.317-5.509 36.244-14.007 52.486-90.146 11.992-180.308-59.646-270.455-61.771v-48.441z" />
<glyph unicode="&#xe92b;" glyph-name="wreath-l" horiz-adv-x="427" d="M421.222-27.806c-156.895 121.576-242.474 315.337-278.135 501.501-11.402 63.884-17.369 128.735-17.828 193.763-10.698-262.15 53.489-543.293 267.438-725.659 7.758-7.732 19.817-7.732 27.575 0 8.14 8.113 8.567 21.721 0.951 30.395zM217.971 849.821c14.84 34.474 18.6 73.199 10.698 110.179-31.932-16.167-58.171-42.793-74.884-75.985-24.96-49.389-21.393-102.579-10.698-110.179 7.133-3.798 49.924 22.796 74.884 75.985zM103.863 675.055c15.437 31.718 18.014 68.786 7.133 102.579-13.060 33.335-37.178 60.381-67.751 75.985-14.283-32.053-16.826-68.632-7.133-102.579 17.83-49.389 57.053-79.784 67.751-75.985zM160.917 659.859c31.397 2.040 60.814 17.030 82.014 41.792 18.102 26.821 29.179 58.292 32.093 91.182-31.057-3.384-60.047-18.159-82.014-41.792-32.093-37.991-39.226-83.582-32.093-91.182zM235.799 580.075c20.108 27.1 31.375 60.443 32.093 94.98-32.054-5.321-61.201-22.874-82.014-49.389-28.525-41.792-39.223-91.182-32.093-94.982 32.308 4.537 61.705 22.241 82.014 49.392zM246.496 454.698c10.601 30.343 13.069 63.23 7.133 94.982-26.452-14.996-48.625-37.307-64.186-64.588-16.345-28.674-18.991-63.901-7.13-94.98 10.698-7.599 42.791 18.994 64.183 64.585zM221.536 336.922c-11.196-31.185-8.576-66.089 7.133-94.982 28.33 15.485 49.095 43.137 57.053 75.985 5.342 32.091 1.618 65.148-10.698 94.982-25.088-18.483-43.86-45.15-53.489-75.985zM303.55 120.364c10.698 0 35.658 34.193 39.226 83.585 0.948 32.443-7.792 64.369-24.96 91.182-21.724-22.214-35.582-51.74-39.226-83.585-4.725-32.829 4.411-66.205 24.96-91.182zM93.166 519.286c10.698 7.599 14.263 56.989-10.698 102.579-19.231 28.834-46.778 50.182-78.449 60.789-7.883-34.469-4.094-70.797 10.698-102.579 24.963-45.591 71.319-68.389 78.449-60.789zM125.259 359.718c7.133 7.597 0 56.989-32.093 98.781-24.66 26.721-57.628 42.931-92.712 45.591-1.474-36.076 10.002-71.397 32.093-98.781 35.658-37.994 82.014-56.989 92.712-45.591zM171.615 207.747c7.133 7.599-7.133 53.19-42.791 87.383-26.621 21.361-59.424 32.113-92.712 30.395 3.505-33.806 18.772-64.983 42.791-87.383 24.355-25.717 59-37.074 92.712-30.395zM185.878 146.96c-29.821 15.791-63.929 19.828-96.277 11.398 13.929-32.497 36.173-60.151 64.183-79.787 42.791-26.594 92.712-22.796 96.279-11.398 3.565 11.398-21.396 53.19-64.186 79.787z" />
<glyph unicode="&#xe92c;" glyph-name="wreath-r" horiz-adv-x="427" d="M301.409 667.458c-0.461-65.026-6.427-129.878-17.831-193.763-35.656-186.161-121.237-379.924-278.135-501.5-7.615-8.675-7.188-22.281 0.953-30.393 7.758-7.734 19.815-7.734 27.573 0 213.953 182.362 278.138 463.508 267.44 725.656zM283.578 773.838c10.698 7.599 14.266 60.786-10.695 110.177-16.714 33.193-42.953 59.817-74.883 75.984-7.904-36.979-4.143-75.703 10.695-110.177 24.961-53.19 67.753-79.784 74.883-75.984zM390.519 751.041c9.695 33.948 7.153 70.526-7.13 102.581-30.575-15.604-54.693-42.651-67.753-75.984-10.883-33.794-8.305-70.865 7.133-102.581 10.698-3.799 49.922 26.594 67.75 75.984zM265.714 659.859c7.133 7.599 0 53.19-32.091 91.182-21.969 23.636-50.959 38.406-82.016 41.792 2.914-32.888 13.992-64.359 32.094-91.182 21.198-24.76 50.617-39.75 82.013-41.792zM240.789 625.666c-20.812 26.516-49.958 44.070-82.016 49.391 0.721-34.537 11.987-67.88 32.094-94.982 20.31-27.151 49.708-44.854 82.016-49.391 7.13 3.799-3.568 53.19-32.094 94.982zM173.003 549.681c-5.937-31.753-3.469-64.638 7.13-94.982 21.396-45.591 53.489-72.185 64.187-64.588 11.859 31.081 9.213 66.307-7.133 94.982-15.56 27.281-37.734 49.594-64.185 64.588zM198 241.942c15.706 28.89 18.328 63.797 7.13 94.982-9.628 30.833-28.401 57.503-53.487 75.984-12.318-29.833-16.042-62.891-10.698-94.982 7.958-32.849 28.724-60.5 57.055-75.984zM123.188 120.364c20.55 24.977 29.687 58.354 24.961 91.182-3.646 31.846-17.5 61.373-39.224 83.586-17.172-26.813-25.911-58.74-24.961-91.182 3.565-49.391 28.526-83.586 39.224-83.586zM344.198 621.867c-24.961-45.591-21.393-94.982-10.698-102.581 7.133-7.596 53.489 15.198 78.45 60.789 14.792 31.784 18.578 68.112 10.698 102.581-31.672-10.609-59.219-31.956-78.45-60.789zM301.409 359.718c10.698-11.398 57.052 7.599 92.711 45.591 22.094 27.386 33.568 62.706 32.094 98.781-35.086-2.659-68.052-18.87-92.713-45.591-32.091-41.792-39.224-91.182-32.091-98.781zM255.052 207.75c33.713-6.682 68.357 4.675 92.713 30.393 24.016 22.401 39.284 53.578 42.789 87.383-33.286 1.719-66.089-9.034-92.711-30.393-35.659-34.195-49.922-79.787-42.792-87.383zM240.753 146.96c-42.789-26.596-67.75-68.388-64.185-79.784 3.565-11.398 53.487-15.198 96.279 11.396 28.010 19.636 50.258 47.289 64.185 79.787-32.349 8.43-66.456 4.393-96.279-11.398z" />
</font>
</defs>
</svg>
